HomeCalendarFAQSearchMemberlistUsergroupsRegisterLog in
Search
 
 

Display results as :
 
Rechercher Advanced Search
Keywords
Latest topics
» Nina Hagen – Volksbeat (2011)
Fri Nov 18, 2011 6:32 am by Admin

» Rammstein – Mein Land (2011)
Fri Nov 18, 2011 6:31 am by Admin

» Patrick Stump – Soul Punk (2011)
Fri Nov 18, 2011 6:29 am by Admin

» Mike Watt – Daytrotter Session 11-4-2011 (2011)
Fri Nov 18, 2011 6:28 am by Admin

» Fastway – Eat Dog Eat (2011)
Fri Nov 18, 2011 6:27 am by Admin

» Pink Floyd – A Foot In The Door The Best Of Pink Floyd (2011)
Fri Nov 18, 2011 6:26 am by Admin

» The Devil’s Blood – Fire Burning (2011)
Fri Nov 18, 2011 6:24 am by Admin

» Void – Sessions 1981-83 (2011)
Fri Nov 18, 2011 6:23 am by Admin

» R E M – Part Lies, Part Heart, Part Truth, Part Garbage 1982-2011 (2011)
Fri Nov 18, 2011 6:22 am by Admin

August 2018
MonTueWedThuFriSatSun
  12345
6789101112
13141516171819
20212223242526
2728293031  
CalendarCalendar
Affiliates
free forum


Share | 
 

 The Fast and the Furious 2001 DvDrip XViD

Go down 
AuthorMessage
Admin
Admin


Posts : 267
Join date : 2011-11-08

PostSubject: The Fast and the Furious 2001 DvDrip XViD   Sat Nov 12, 2011 12:30 am

The Fast and the Furious 2001 DvDrip XViD







Quote :
http://www.imdb.com/title/tt0232500/

An undercover cop infiltrates an underworld subculture of Los Angeles street racers looking to bust a hijacking ring, and soon begins to question his loyalties when his new street racing friends become the prime suspects

Quote :

Format : AVI
Format/Info : Audio Video Interleave
File size : 701 MiB
Duration : 1h 46mn
Overall bit rate : 917 Kbps
Writing application : Nandub v1.0rc2
Writing library : Nandub build 1853/release
Comment : ViSiT nCODE @ Warez-bb

Video
ID : 0
Format : MPEG-4 Visual
Format profile : Advanced Simple@L5
Format settings, BVOP : 2
Format settings, QPel : No
Format settings, GMC : No warppoints
Format settings, Matrix : Default (H.263)
Codec ID : XVID
Codec ID/Hint : XviD
Duration : 1h 46mn
Bit rate : 779 Kbps
Width : 640 pixels
Height : 272 pixels
Display aspect ratio : 2.35:1
Frame rate : 23.976 fps
Color space : YUV
Chroma subsampling : 4:2:0
Bit depth : 8 bits
Scan type : Progressive
Compression mode : Lossy
Bits/(Pixel*Frame) : 0.187
Stream size : 596 MiB (85%)
Writing library : XviD 1.2.1 (UTC 2008-12-04)

Audio
ID : 1
Format : MPEG Audio
Format version : Version 1
Format profile : Layer 3
Mode : Joint stereo
Codec ID : 55
Codec ID/Hint : MP3
Duration : 1h 46mn
Bit rate mode : Constant
Bit rate : 128 Kbps
Channel(s) : 2 channels
Sampling rate : 48.0 KHz
Compression mode : Lossy
Stream size : 97.9 MiB (14%)
Alignment : Split accross interleaves
Interleave, duration : 42 ms (1.00 video frame)
Interleave, preload duration : 500 ms
Writing library : LAME3.98r
Encoding settings : -m j -V 4 -q 2 -lowpass 17 -b 128

hope all you guys njoy!!





Code:
http://www.fileserve.com/file/ypVre7D/The.Fast.and.the.Furious.2001.DvDrip.XViD-




Code:
http://www.filesonic.com/file/3149166664/The.Fast.and.the.Furious.2001.DvDrip.XViD-




Code:
http://www.filejungle.com/f/rKktkx/The.Fast.and.the.Furious.2001.DvDrip.XViD-




Code:
http://www.wupload.com/file/1973164812/The.Fast.and.the.Furious.2001.DvDrip.XViD-


Back to top Go down
View user profile http://dont.get-board.net
 
The Fast and the Furious 2001 DvDrip XViD
Back to top 
Page 1 of 1

Permissions in this forum:You cannot reply to topics in this forum
Don't get board :: Movies-
Jump to: