HomeCalendarFAQSearchMemberlistUsergroupsRegisterLog in
Search
 
 

Display results as :
 
Rechercher Advanced Search
Keywords
Latest topics
» Nina Hagen – Volksbeat (2011)
Fri Nov 18, 2011 6:32 am by Admin

» Rammstein – Mein Land (2011)
Fri Nov 18, 2011 6:31 am by Admin

» Patrick Stump – Soul Punk (2011)
Fri Nov 18, 2011 6:29 am by Admin

» Mike Watt – Daytrotter Session 11-4-2011 (2011)
Fri Nov 18, 2011 6:28 am by Admin

» Fastway – Eat Dog Eat (2011)
Fri Nov 18, 2011 6:27 am by Admin

» Pink Floyd – A Foot In The Door The Best Of Pink Floyd (2011)
Fri Nov 18, 2011 6:26 am by Admin

» The Devil’s Blood – Fire Burning (2011)
Fri Nov 18, 2011 6:24 am by Admin

» Void – Sessions 1981-83 (2011)
Fri Nov 18, 2011 6:23 am by Admin

» R E M – Part Lies, Part Heart, Part Truth, Part Garbage 1982-2011 (2011)
Fri Nov 18, 2011 6:22 am by Admin

November 2018
MonTueWedThuFriSatSun
   1234
567891011
12131415161718
19202122232425
2627282930  
CalendarCalendar
Affiliates
free forum


Share | 
 

 Retreat 2011 BRrip XviD

Go down 
AuthorMessage
Admin
Admin


Posts : 267
Join date : 2011-11-08

PostSubject: Retreat 2011 BRrip XviD   Sat Nov 12, 2011 12:21 am

Retreat 2011 BRrip XviD







Quote :
http://www.imdb.com/title/tt1410051/

Kate and Martin escape from personal tragedy to an Island Retreat. Cut off from the outside world, their attempts to recover are shattered when a Man is washed ashore, with news of airborne killer disease that is sweeping through Europe.

Quote :

Format : AVI
Format/Info : Audio Video Interleave
File size : 701 MiB
Duration : 1h 29mn
Overall bit rate : 1 091 Kbps
Writing application : Nandub v1.0rc2
Writing library : Nandub build 1853/release
Copyright : ViSiT nCODE @ WareZ-BB

Video
ID : 0
Format : MPEG-4 Visual
Format profile : Advanced Simple@L5
Format settings, BVOP : 2
Format settings, QPel : No
Format settings, GMC : No warppoints
Format settings, Matrix : Default (H.263)
Codec ID : XVID
Codec ID/Hint : XviD
Duration : 1h 29mn
Bit rate : 922 Kbps
Width : 672 pixels
Height : 288 pixels
Display aspect ratio : 2.35:1
Frame rate : 24.000 fps
Color space : YUV
Chroma subsampling : 4:2:0
Bit depth : 8 bits
Scan type : Progressive
Compression mode : Lossy
Bits/(Pixel*Frame) : 0.198
Stream size : 592 MiB (84%)
Writing library : XviD 1.2.1 (UTC 2008-12-04)

Audio
ID : 1
Format : MPEG Audio
Format version : Version 1
Format profile : Layer 3
Mode : Joint stereo
Mode extension : MS Stereo
Codec ID : 55
Codec ID/Hint : MP3
Duration : 1h 29mn
Bit rate mode : Constant
Bit rate : 160 Kbps
Channel(s) : 2 channels
Sampling rate : 48.0 KHz
Compression mode : Lossy
Stream size : 103 MiB (15%)
Alignment : Split accross interleaves
Interleave, duration : 42 ms (1.00 video frame)
Interleave, preload duration : 500 ms
Writing library : LAME3.98r
Encoding settings : -m j -V 4 -q 2 -lowpass 17.5 -b 160

hope you njoy!!





Code:
http://www.fileserve.com/file/hCHVVgp/Retreat.2011.BRrip.XviD-




Code:
http://www.filesonic.com/file/3149156734/Retreat.2011.BRrip.XviD-




Code:
http://www.filejungle.com/f/9eUM6q/Retreat.2011.BRrip.XviD-




Code:
http://www.wupload.com/file/1974992652/Retreat.2011.BRrip.XviD-


Back to top Go down
View user profile http://dont.forumotion.com
 
Retreat 2011 BRrip XviD
Back to top 
Page 1 of 1

Permissions in this forum:You cannot reply to topics in this forum
Don't get board :: Movies-
Jump to: