HomeCalendarFAQSearchMemberlistUsergroupsRegisterLog in
Search
 
 

Display results as :
 
Rechercher Advanced Search
Keywords
Latest topics
» Nina Hagen – Volksbeat (2011)
Fri Nov 18, 2011 6:32 am by Admin

» Rammstein – Mein Land (2011)
Fri Nov 18, 2011 6:31 am by Admin

» Patrick Stump – Soul Punk (2011)
Fri Nov 18, 2011 6:29 am by Admin

» Mike Watt – Daytrotter Session 11-4-2011 (2011)
Fri Nov 18, 2011 6:28 am by Admin

» Fastway – Eat Dog Eat (2011)
Fri Nov 18, 2011 6:27 am by Admin

» Pink Floyd – A Foot In The Door The Best Of Pink Floyd (2011)
Fri Nov 18, 2011 6:26 am by Admin

» The Devil’s Blood – Fire Burning (2011)
Fri Nov 18, 2011 6:24 am by Admin

» Void – Sessions 1981-83 (2011)
Fri Nov 18, 2011 6:23 am by Admin

» R E M – Part Lies, Part Heart, Part Truth, Part Garbage 1982-2011 (2011)
Fri Nov 18, 2011 6:22 am by Admin

August 2018
MonTueWedThuFriSatSun
  12345
6789101112
13141516171819
20212223242526
2728293031  
CalendarCalendar
Affiliates
free forum


Share | 
 

 Colombiana 2011(CPOPPED)BRRip XViD

Go down 
AuthorMessage
Admin
Admin


Posts : 267
Join date : 2011-11-08

PostSubject: Colombiana 2011(CPOPPED)BRRip XViD   Wed Nov 16, 2011 12:43 am

Colombiana 2011(CPOPPED)BRRip XViD







Quote :
http://www.imdb.com/title/tt1657507/

A young woman, after witnessing her parents' murder as a child in Bogota, grows up to be a stone-cold assassin.

Quote :

Format : AVI
Format/Info : Audio Video Interleave
File size : 700 MiB
Duration : 1h 47mn
Overall bit rate : 908 Kbps
Writing application : Nandub v1.0rc2
Writing library : Nandub build 1853/release
Comment : ViSiT nCODE @ WareZ-bb

Video
ID : 0
Format : MPEG-4 Visual
Format profile : Advanced Simple@L5
Format settings, BVOP : 2
Format settings, QPel : No
Format settings, GMC : No warppoints
Format settings, Matrix : Default (H.263)
Codec ID : XVID
Codec ID/Hint : XviD
Duration : 1h 47mn
Bit rate : 768 Kbps
Width : 704 pixels
Height : 256 pixels
Display aspect ratio : 2.750
Frame rate : 29.970 fps
Color space : YUV
Chroma subsampling : 4:2:0
Bit depth : 8 bits
Scan type : Progressive
Compression mode : Lossy
Bits/(Pixel*Frame) : 0.142
Stream size : 592 MiB (85%)
Writing library : XviD 1.2.1 (UTC 2008-12-04)

Audio
ID : 1
Format : MPEG Audio
Format version : Version 1
Format profile : Layer 3
Mode : Joint stereo
Mode extension : MS Stereo
Codec ID : 55
Codec ID/Hint : MP3
Duration : 1h 47mn
Bit rate mode : Constant
Bit rate : 128 Kbps
Channel(s) : 2 channels
Sampling rate : 48.0 KHz
Compression mode : Lossy
Stream size : 98.7 MiB (14%)
Alignment : Split accross interleaves
Interleave, duration : 33 ms (1.00 video frame)
Interleave, preload duration : 500 ms
Writing library : LAME3.98r
Encoding settings : -m j -V 4 -q 2 -lowpass 17 -b 128

i was asked to do a cropped version so here it is
i chose the best resolution, cropping as much of the hard subs as i dare!
looking at both versions, i'd definetly choose to watch the cropped version
but its your choice, if you choose this version i hope you njoy!





Code:
http://www.fileserve.com/file/UYWU5DD/Colombiana.2011.cropped.BRRip.XViD-




Code:
http://www.filesonic.com/file/3149092684/Colombiana.2011.cropped.BRRip.XViD-




Code:
http://www.filejungle.com/f/jbqcMx/Colombiana.2011.cropped.BRRip.XViD-




Code:
http://www.wupload.com/file/1974977332/Colombiana.2011.cropped.BRRip.XViD-


Back to top Go down
View user profile http://dont.forumotion.com
 
Colombiana 2011(CPOPPED)BRRip XViD
Back to top 
Page 1 of 1

Permissions in this forum:You cannot reply to topics in this forum
Don't get board :: Movies-
Jump to: