HomeCalendarFAQSearchMemberlistUsergroupsRegisterLog in
Search
 
 

Display results as :
 
Rechercher Advanced Search
Keywords
Latest topics
» Nina Hagen – Volksbeat (2011)
Fri Nov 18, 2011 6:32 am by Admin

» Rammstein – Mein Land (2011)
Fri Nov 18, 2011 6:31 am by Admin

» Patrick Stump – Soul Punk (2011)
Fri Nov 18, 2011 6:29 am by Admin

» Mike Watt – Daytrotter Session 11-4-2011 (2011)
Fri Nov 18, 2011 6:28 am by Admin

» Fastway – Eat Dog Eat (2011)
Fri Nov 18, 2011 6:27 am by Admin

» Pink Floyd – A Foot In The Door The Best Of Pink Floyd (2011)
Fri Nov 18, 2011 6:26 am by Admin

» The Devil’s Blood – Fire Burning (2011)
Fri Nov 18, 2011 6:24 am by Admin

» Void – Sessions 1981-83 (2011)
Fri Nov 18, 2011 6:23 am by Admin

» R E M – Part Lies, Part Heart, Part Truth, Part Garbage 1982-2011 (2011)
Fri Nov 18, 2011 6:22 am by Admin

August 2018
MonTueWedThuFriSatSun
  12345
6789101112
13141516171819
20212223242526
2728293031  
CalendarCalendar
Affiliates
free forum


Share | 
 

 Killer Elite 2011 HDRip XVID AC3 Partial BluR SeT-CM8

Go down 
AuthorMessage
Admin
Admin


Posts : 267
Join date : 2011-11-08

PostSubject: Killer Elite 2011 HDRip XVID AC3 Partial BluR SeT-CM8   Wed Nov 16, 2011 12:19 am

Killer Elite 2011 HDRip XVID AC3 Partial BluR SeT-CM8



Quote :
Genre: Action | Crime | Thriller
IMDB rating: 6.7/10
Killer Elite 2011 HDRip XVID AC3 Partial BluR SeT-CM8

Based on a true story, Killer Elite pits two of the worlds' most elite operatives - Danny, an ex-special ops agent (Jason Statham) and Hunter, his longtime mentor (Robert De Niro) - against the cunning leader of a secret military society ('Clive Owen' ). Covering the globe from Australia to Paris, London and the Middle East, Danny and Hunter are plunged into a highly dangerous game of cat and mouse - where the predators become the prey.



Format : AVI
Format/Info : Audio Video Interleave
File size : 1.33 GiB
Duration : 1h 56mn
Overall bit rate : 1 634 Kbps
Writing library : VirtualDub build 30091/release

Video
ID : 0
Format : MPEG-4 Visual
Format profile : Advanced Simple@L5
Format settings, BVOP : Yes
Format settings, QPel : No
Format settings, GMC : No warppoints
Format settings, Matrix : Default (H.263)
Codec ID : XVID
Codec ID/Hint : XviD
Duration : 1h 56mn
Bit rate : 1 430 Kbps
Width : 720 pixels
Height : 304 pixels
Display aspect ratio : 2.35:1
Frame rate : 29.970 fps
Resolution : 8 bits
Colorimetry : 4:2:0
Scan type : Progressive
Bits/(Pixel*Frame) : 0.218
Stream size : 1.16 GiB (88%)
Writing library : XviD 1.2.1 (UTC 2008-12-04)

Audio
ID : 1
Format : AC-3
Format/Info : Audio Coding 3
Format_Settings_ModeExtension : CM (complete main)
Codec ID : 2000
Duration : 1h 56mn
Bit rate mode : Constant
Bit rate : 192 Kbps
Channel(s) : 2 channels
Channel positions : Front: L R
Sampling rate : 48.0 KHz
Stream size : 160 MiB (12%)
Alignment : Aligned on interleaves
Interleave, duration : 33 ms (1.00 video frame)
Interleave, preload duration : 512 ms



Quote :
http://www.imdb.com/title/tt1448755/







Code:
http://www.fileserve.com/file/RWh9S8j/Killer




Code:
http://www.filesonic.com/file/2986051424/Killer.Elite.2011.HDRip.XVID.AC3.Partial.BluR.SeT-CM8.avi




Code:
http://www.filejungle.com/f/YMQD6r




Code:
http://www.wupload.com/file/1910876137


Back to top Go down
View user profile http://dont.get-board.net
 
Killer Elite 2011 HDRip XVID AC3 Partial BluR SeT-CM8
Back to top 
Page 1 of 1

Permissions in this forum:You cannot reply to topics in this forum
Don't get board :: Movies-
Jump to: